Justice League Dark 2017 1080p BluRay X264 Multi DTSHD 7 1 -DDR

Torrent Details

Justice League Dark  2017 1080p BluRay x264 Multi DTSHD 7 1 -DDR

NAME
Justice League Dark 2017 1080p BluRay x264 Multi DTSHD 7 1 -DDR.torrent
CATEGORY
Unknown
INFOHASH
3a693fad11ddfbb4bbe7b22e2f268c1d9a765d41
SIZE
7.1 GB in 3 files
ADDED
Uploaded on 08-02-2017 by our crawler pet called "Spidey".
SWARM
0 seeders & 0 peers
RATING
No votes yet.

Please login to vote for this torrent.


Description




HQ 1080p Blu-Ray Rip x264

English DTSHD-MA 5.1 Audio
French DDS 5.1 Audio

English French Japanese German Spanish Portuguese Danish Finnish Norwegian Swedish subs

SCREENSHOTS


SPECS


Source: Blu-ray @ HDC

Format : Matroska
File size : 7.05 GiB
Duration : 1 h 15 min
Overall bit rate : 13.3 Mb/s

Video
Format : AVC
Format profile : [email protected]
Bit rate : 10.0 Mb/s
Width : 1 920 pixels
Height : 1 080 pixels
Display aspect ratio : 16:9
Frame rate : 23.976 (24000/1001) FPS
Bit depth : 8 bits
Stream size : 5.30 GiB (75%)
Color primaries : BT.709

Audio #1
Format : DTSHD-MA 5.1
Bit rate : 2 617 kb/s / 1 509 kb/s
Bit depth : 24 bits
Stream size : 1.39 GiB (20%)
Language : English

Audio #2
Format : AC-3
Bit rate mode : Constant
Bit rate : 640 kb/s
Channel(s) : 6 channels
Bit depth : 16 bits
Stream size : 347 MiB (5%)
Language : French


Chapters : YES

SAMPLE Included

A DDR Exclusive Encode

Discussion

Comments 0

Post Your Comment

Files in this torrent

FILENAMESIZE
A DDR Release !!!.txt287 B
Justice League Dark. 2017 1080p BluRay x264 Multi DTSHD 7.1 -DDR.mkv7.1 GB
sample-Justice League Dark. 2017 1080p BluRay x264 Multi DTSHD 7.1 -DDR.mkv44.2 MB

Alternative Torrents for 'Justice League Dark BluRay Multi DTSHD -DDR'.

There are no alternative torrents found.